Sunday 22 January 2012

Subha Hone Na De (Desi Boyz) - Full Song - H.264 - 720p BrRip ~~~AbhinavRocks {{-HKRG-}}

ibdkPir4rdq6Me.png 
Info ::
Format                           : Matroska
File size                        : 121 MiB
Duration                         : 4mn 31s
Overall bit rate                 : 3 729 Kbps


Video Info ::
ID                               : 1
Format                           : AVC
Format/Info                      : Advanced Video Codec
Duration                         : 4mn 31s
Bit rate                         : 3 463 Kbps
Width                            : 1 280 pixels
Height                           : 544 pixels
Display aspect ratio             : 2.35:1
Frame rate                       : 30.000 fps
Color space                      : YUV
Chroma subsampling               : 4:2:0
Bit depth                        : 8 bits
Scan type                        : Progressive
Bits/(Pixel*Frame)               : 0.166
Stream size                      : 112 MiB (93%)


Audio Info ::
ID                               : 2
Format                           : MPEG Audio
Format version                   : Version 1
Format profile                   : Layer 3
Codec ID                         : A_MPEG/L3
Codec ID/Hint                    : MP3
Duration                         : 4mn 31s
Bit rate mode                    : Constant
Bit rate                         : 192 Kbps
Channel(s)                       : 2 channels
Sampling rate                    : 44.1 KHz
Compression mode                 : Lossy
Stream size                      : 6.21 MiB (5%)
 
iKYHihlf92Z5Q.png
iyfqiCSTe24aC.png
izLAEEJV8EXMC.png
iP7joRcTVPEVn.png
i9PigfillBfdw.png
iIe5lwB20ivzl.png
ix0C0YhRHT5W2.png
ibamKakmXdSOpA.png
ibcrdpEToDYC4u.png
iukMreCSEN50f.png 
 

0 comments:

Post a Comment

Twitter Delicious Facebook Digg Stumbleupon Favorites More

 
Design by Free WordPress Themes | Bloggerized by Lasantha - Premium Blogger Themes | Powerade Coupons